All Products | Personalización | Newlyweds The First Year
extratorrent - A Fan Made Alternative Login   |   Register
Important Information
Registrations are open now
-------------------------------------

Please click here to register with Extratorrent2 to recieve latest updates, add bookmarks and to post comments.

Friends
Friends

1) ProxyFix

Extratorrent2 > Categories > Movies > The Vow 2012 R5 LiNE XViD - INSPiRAL torrent


Browse Movies torrents

The Vow 2012 R5 LiNE XViD - INSPiRAL torrent


The Vow (2012)
Name: The Vow
Released Year: 2012
Runtime: 104 mins
Gener: Drama, Romance
Director: Michael Sucsy
Country: USA, France, Australia, UK, Germany, Canada
IMDB Rating: 6.8/10
Plot: A car accident puts Paige in a coma, and when she wakes up with severe memory loss, her husband Leo works to win her heart again.

Download torrent: Download The Vow 2012 R5 LiNE XViD - INSPiRAL torrent Magnet link Bookmark Torrent: The Vow 2012 R5 LiNE XViD - INSPiRAL   The Vow 2012 R5 LiNE XViD - INSPiRAL torrent
Info hash: 3D01C0F7F090F6E373A250C88DBDACA2789DED07
Category: Categories > Movies
Trackers:
View all torrent trackers >
Health:
 seeds: 0 ,  leechers: 1 |  Update >
Torrent language: English English
Total Size: 1.2 GB
Files List:
4    View torrent files >
Uploader:
Legend
Torrent added: May 25, 2012, 5:44 am
IMDB: http://www.imdb.com/title/tt1606389
Users rating: ---, not rated. please login to rate.

Download The Vow 2012 R5 LiNE XViD - INSPiRAL torrent



Torrent Description

TITLE:



The Vow 2012 R5 LiNE XViD - INSPiRAL

IMDB:

http://www.imdb.com/title/tt1606389/


SOURCES:

VIDEO - Lum1x THANKS
AUDIO - Riplegendz THANKS
SUBS - None Add

STATS:

Video
ID : 0
Format : MPEG-4 Visual
Format profile : Advanced
Format settings, BVOP : 2
Format settings, QPel : No
Format settings, GMC : No warppoints
Format settings, Matrix : Default (MPEG)
Codec ID : XVID
Codec ID/Hint : XviD
Duration : 1h 39mn
Bit rate : 1 568 Kbps
Width : 720 pixels
Height : 304 pixels
Display aspect ratio : 2.35:1
Frame rate : 25.000 fps
Color space : YUV
Chroma subsampling : 4:2:0
Bit depth : 8 bits
Scan type : Progressive
Compression mode : Lossy
Bits/(Pixel*Frame) : 0.287
Stream size : 1.09 GiB (92%)
Writing library : XviD 1.2.1 (UTC 2008-12-04)

Audio
ID : 1
Format : MPEG Audio
Format version : Version 1
Format profile : Layer 3
Mode : Joint stereo
Mode extension : MS Stereo
Codec ID : 55
Codec ID/Hint : MP3
Duration : 1h 39mn
Bit rate mode : Constant
Bit rate : 128 Kbps
Channel(s) : 2 channels
Sampling rate : 44.1 KHz
Compression mode : Lossy
Stream size : 91.1 MiB (7%)
Alignment : Split accross interleaves
Interleave, duration : 40 ms (1.00 video frame)
Interleave, preload duration : 500 ms




NOTES:

Ok folks here a nice R5 this time of the vow and for once Line audio
The video wasn't ripped by us so credit too lum1x for sending it us ....would have ripped from the dvd-r ourselfs,but theres a wait time on it at the time of doing this.
The video we haven't re-encoded it ...just syncd some sweet line audio to it
Audio has a few static noise a couple of times but last like 1 secs ....but otherwise after some lovin in AA its came out nice and in sync with 1 cut




Download The Vow 2012 R5 LiNE XViD - INSPiRAL torrent


Related Torrents


Comments   (please login to add your comment!)


Home - Browse Torrents

Made with love by an Extratorrent Fan!