Spun Out | Download APK | Chrome Remote Desktop
extratorrent - A Fan Made Alternative Login   |   Register
Important Information
Registrations are open now
-------------------------------------

Please click here to register with Extratorrent2 to recieve latest updates, add bookmarks and to post comments.

Friends
Friends

1) ProxyFix

Extratorrent2 > Categories > Movies > The.Vow.2012.Cam.XviD.Feel-Free torrent


Browse Movies torrents

The.Vow.2012.Cam.XviD.Feel-Free torrent


Download torrent: Download The.Vow.2012.Cam.XviD.Feel-Free torrent Magnet link Bookmark Torrent: The.Vow.2012.Cam.XviD.Feel-Free   The.Vow.2012.Cam.XviD.Feel-Free torrent
Info hash: 425F318FEFAAD9C251F3CF8BC331FEEE097C76FF
Category: Categories > Movies
Trackers:
View all torrent trackers >
Health:
 seeds: 0 ,  leechers: 1 |  Update >
Torrent language: English English
Total Size: 987.8 MB
Files List:
10    View torrent files >
Uploader:
pitic
Torrent added: May 25, 2012, 7:26 am
Users rating: ---, not rated. please login to rate.

Download The.Vow.2012.Cam.XviD.Feel-Free torrent



Torrent Description





Genre:Drama | Romance
Language:English
IMDb:
Source:INFERNO Thanks!
Encoder:Tony

Format : AVI
Format/Info : Audio Video Interleave
File size : 986 MiB
Duration : 1h 39mn
Overall bit rate : 1 385 Kbps

Video
ID : 0
Format : MPEG-4 Visual
Format profile : Advanced
Format settings, BVOP : 2
Format settings, QPel : No
Format settings, GMC : No warppoints
Format settings, Matrix : Default (H.263)
Muxing mode : Packed bitstream
Codec ID : XVID
Codec ID/Hint : XviD
Duration : 1h 39mn
Bit rate : 1 245 Kbps
Width : 640 pixels
Height : 272 pixels
Display aspect ratio : 2.35:1
Frame rate : 29.970 fps
Color space : YUV
Chroma subsampling : 4:2:0
Bit depth : 8 bits
Scan type : Progressive
Compression mode : Lossy
Bits/(Pixel*Frame) : 0.239
Stream size : 887 MiB (90%)
Writing library : XviD 64

Audio
ID : 1
Format : MPEG Audio
Format version : Version 1
Format profile : Layer 3
Codec ID : 55
Codec ID/Hint : MP3
Duration : 1h 39mn
Bit rate mode : Constant
Bit rate : 128 Kbps
Channel(s) : 2 channels
Sampling rate : 48.0 KHz
Compression mode : Lossy
Delay relative to video : 22ms
Stream size : 91.1 MiB (9%)
Alignment : Split accross interleaves
Interleave, duration : 33 ms (1.00 video frame)
Interleave, preload duration : 500 ms


Plot:
A car accident puts Paige (McAdams) in a coma, and when she wakes up with severe memory loss, her husband Leo (Tatum) works to win her heart again.

TRAILER:









Greets:

CRYS,IMAGINE,LKRG,FXG,3Li,FLAWL3SS,TA,iLLUSiON,EMBER,HOPE,GooN,BBnRG,NOGRP,ETRG,BHRG,iLLUMiNATi,MiSTERE.ViSiON,DTRG SAFCuk009,LU,TheFalcon007,MYSTiC,PrisM,Noir,WBZ,LAP,Rx,Kingdom,SAFCuk009+Fabreezy,HDLiTE,TWiZTED,ExtraTorrentRG.ELEKTRI4KA,MAGNAT,CM8
And to all the other p2p grps past and present




Make sure its a real Feel-Free release @ http://extratorrent.com

Thanks to all who promotes release Feel-Free !!!


Download The.Vow.2012.Cam.XviD.Feel-Free torrent


Related Torrents


Comments   (please login to add your comment!)


Home - Browse Torrents

Made with love by an Extratorrent Fan!