Empress Ki | Facebook | Ржев – Сталинград Скрытый гамбит маршала...
extratorrent - A Fan Made Alternative Login   |   Register
Important Information
Registrations are open now
-------------------------------------

Please click here to register with Extratorrent2 to recieve latest updates, add bookmarks and to post comments.

Friends
Friends

1) ProxyFix

Extratorrent2 > Categories > Movies > The Vow[2012]ENG[BRrip]XviD-(RedDragon) torrent


Browse Movies torrents

The Vow[2012]ENG[BRrip]XviD-(RedDragon) torrent


The Vow (2012)
Name: The Vow
Released Year: 2012
Runtime: 104 mins
Gener: Drama, Romance
Director: Michael Sucsy
Country: USA, France, Australia, UK, Germany, Canada
IMDB Rating: 6.8/10
Plot: A car accident puts Paige in a coma, and when she wakes up with severe memory loss, her husband Leo works to win her heart again.

Download torrent: Download The Vow[2012]ENG[BRrip]XviD-(RedDragon) torrent Magnet link Bookmark Torrent: The Vow[2012]ENG[BRrip]XviD-(RedDragon)   The Vow[2012]ENG[BRrip]XviD-(RedDragon) torrent
Info hash: 5BB8CBAC1D0F5334685A065B12E664F4736964BB
Category: Categories > Movies
Trackers:
View all torrent trackers >
Health:
 seeds: 0 ,  leechers: 1 |  Update >
Torrent language: English English
Total Size: 746.8 MB
Files List:
13    View torrent files >
Uploader:
SunBen
Torrent added: May 24, 2013, 6:31 pm
Tags: Vow, 2012, BRRip, RedDragon
IMDB: http://www.imdb.com/title/tt1606389
Users rating: ---, not rated. please login to rate.

Download The Vow[2012]ENG[BRrip]XviD-(RedDragon) torrent



Torrent Description



General.

Complete name : The Vow[2012]ENG[BRrip]XviD-(RedDragon).m4v
Format : MPEG-4
Format profile : Base Media / Version 2
Codec ID : mp42
File size : 747 MiB
Duration : 1h 39mn
Overall bit rate : 1,045 Kbps
IMDB LINK : http://www.imdb.com/title/tt1606389/
IMDB Rating : 6.6/10


Video.

ID : 1
Format : MPEG-4 Visual
Format profile :
Format settings, BVOP : No
Format settings, QPel : No
Format settings, GMC : No warppoints
Format settings, Matrix : Default (H.263)
Codec ID : 20
Duration : 1h 39mn
Bit rate mode : Variable
Bit rate : 883 Kbps
Maximum bit rate : 3 729 Kbps
Width : 640 pixels
Height : 256 pixels
Display aspect ratio : 2.500
Frame rate mode : Constant
Frame rate : 25.000 fps
Color space : YUV
Chroma subsampling : 4:2:0
Bit depth : 8 bits
Scan type : Progressive
Bits/(Pixel*Frame) : 0.215
Stream size : 631 MiB (84%)
Writing library : Lavc52.94.3
Encoded date : UTC 2012-06-01 04:25:13
Tagged date : UTC 2012-06-01 04:32:19


Audio.

ID : 2
Format : AAC
Format/Info : Advanced Audio Codec
Format version : Version 4
Format profile : LC
Format settings, SBR : No
Codec ID : 40
Duration : 1h 39mn
Bit rate mode : Variable
Bit rate : 160 Kbps
Maximum bit rate : 286 Kbps
Channel(s) : 2 channels
Channel positions : Front: L R
Sampling rate : 44.1 KHz
Stream size : 114 MiB (15%)
Encoded date : UTC 2012-06-01 04:25:13
Tagged date : UTC 2012-06-01 04:32:19


Download The Vow[2012]ENG[BRrip]XviD-(RedDragon) torrent




Comments   (please login to add your comment!)


Home - Browse Torrents

Made with love by an Extratorrent Fan!