film Les Deux chevaux de Gengis Khan | Shooting | All Games (Count: 21866)
extratorrent - A Fan Made Alternative Login   |   Register
Important Information
Registrations are open now
-------------------------------------

Please click here to register with Extratorrent2 to recieve latest updates, add bookmarks and to post comments.

Friends
Friends

1) ProxyFix

Extratorrent2 > Categories > Movies > The Vow 2012 CAM x264 AAC-DiNGiE torrent


Browse Movies torrents

The Vow 2012 CAM x264 AAC-DiNGiE torrent


The Vow (2012)
Name: The Vow
Released Year: 2012
Runtime: 104 mins
Gener: Drama, Romance
Director: Michael Sucsy
Country: USA, France, Australia, UK, Germany, Canada
IMDB Rating: 6.8/10
Plot: A car accident puts Paige in a coma, and when she wakes up with severe memory loss, her husband Leo works to win her heart again.

Download torrent: Download The Vow 2012 CAM x264 AAC-DiNGiE torrent Magnet link Bookmark Torrent: The Vow 2012 CAM x264 AAC-DiNGiE   The Vow 2012 CAM x264 AAC-DiNGiE torrent
Info hash: 86A4E5C943957C991AD8C32FD4A670BB94D49D2A
Category: Categories > Movies
Trackers:
View all torrent trackers >
Health:
 seeds: 0 ,  leechers: 1 |  Update >
Torrent language: English English
Total Size: 1.0 GB
Files List:
2    View torrent files >
Uploader:
Dingie
Torrent added: May 25, 2012, 7:15 pm
IMDB: http://www.imdb.com/title/tt1606389
Users rating: ---, not rated. please login to rate.

Download The Vow 2012 CAM x264 AAC-DiNGiE torrent



Torrent Description



The Vow 2012 CAM x264 AAC-DiNGiE

http://www.imdb.com/title/tt1606389/

A car accident puts Paige (McAdams) in a coma, and when she wakes up with severe memory loss, her husband Leo (Tatum) works to win

her heart again.

General
Complete name : C:\The Vow 2012 CAM x264 AAC-DiNGiE.mp4
Format : MPEG-4
Format profile : Base Media
Codec ID : isom
File size : 1 017 MiB
Duration : 1h 39mn
Overall bit rate mode : Variable
Overall bit rate : 1 429 Kbps

Video
ID : 1
Format : AVC
Format/Info : Advanced Video Codec
Format profile :
Format settings, CABAC : Yes
Format settings, ReFrames : 3 frames
Codec ID : avc1
Codec ID/Info : Advanced Video Coding
Duration : 1h 39mn
Bit rate mode : Variable
Bit rate : 1 301 Kbps
Maximum bit rate : 40.0 Mbps
Width : 640 pixels
Height : 272 pixels
Display aspect ratio : 2.35:1
Frame rate mode : Constant
Frame rate : 29.970 fps
Color space : YUV
Chroma subsampling : 4:2:0
Bit depth : 8 bits
Scan type : Progressive
Bits/(Pixel*Frame) : 0.249
Stream size : 926 MiB (91%)
Writing library : x264 core 120 r2164 da19765

Audio
ID : 2
Format : AAC
Format/Info : Advanced Audio Codec
Format profile : LC
Codec ID : 40
Duration : 1h 39mn
Bit rate mode : Variable
Bit rate : 124 Kbps
Maximum bit rate : 139 Kbps
Channel(s) : 2 channels
Channel positions : Front: L R
Sampling rate : 48.0 KHz
Compression mode : Lossy
Stream size : 88.1 MiB (9%)
Language : English

Source:
The Vow 2012 CAM XviD-INFERNO

Thanks ^^^^^^^^^^^^^^^^^^^^^^

Work Done: You know how it goes .... Video / Tweaked chroma, rgb, colors, sat, hue, sigma, gamma, brightness, contrast, added degrain, denoise, whitebalance and sharpen, as you do to get it looking sweet. :)
Audio / It's pretty decent, all i did was denoise and add a bit of bass then muxed it up. Enjoy ;)






Download The Vow 2012 CAM x264 AAC-DiNGiE torrent


Related Torrents


Comments   (please login to add your comment!)


Home - Browse Torrents

Made with love by an Extratorrent Fan!