Anthony Horowitz | Weekly Idol Episode 311 | American Assassin BluRay-Screeener
extratorrent - A Fan Made Alternative Login   |   Register
Important Information
Registrations are open now
-------------------------------------

Please click here to register with Extratorrent2 to recieve latest updates, add bookmarks and to post comments.

Friends
Friends

1) ProxyFix

Extratorrent2 > Categories > Movies > The.Vow.CAM.2012.XviD-INFERNO-[MoviesP2P.com] torrent


Browse Movies torrents

The.Vow.CAM.2012.XviD-INFERNO-[MoviesP2P.com] torrent


The Vow (2012)
Name: The Vow
Released Year: 2012
Runtime: 104 mins
Gener: Drama, Romance
Director: Michael Sucsy
Country: USA, France, Australia, UK, Germany, Canada
IMDB Rating: 6.8/10
Plot: A car accident puts Paige in a coma, and when she wakes up with severe memory loss, her husband Leo works to win her heart again.

Download torrent: Download The.Vow.CAM.2012.XviD-INFERNO-[MoviesP2P.com] torrent Magnet link Bookmark Torrent: The.Vow.CAM.2012.XviD-INFERNO-[MoviesP2P.com]   The.Vow.CAM.2012.XviD-INFERNO-[MoviesP2P.com] torrent
Info hash: A2C1C24CA228F093A182FA5E167D8C7828B25D13
Category: Categories > Movies
Trackers:
View all torrent trackers >
Health:
 seeds: 0 ,  leechers: 1 |  Update >
Torrent language: English English
Total Size: 1.4 GB
Files List:
3    View torrent files >
Uploader:
moviesp2p
Torrent added: May 25, 2012, 9:47 am
IMDB: http://www.imdb.com/title/tt1606389
Users rating: ---, not rated. please login to rate.

Download The.Vow.CAM.2012.XviD-INFERNO-[MoviesP2P.com] torrent



Torrent Description

http://www.imdb.com/title/tt1606389/


Here's another with a with a higher
bitrate and resolution
So we got a nice cam of The Vow here
for you.Not to much to say here
did the normal rotate,crop, resize
and adjusted this and that , came out really nice.
Audio is cam but it's very good which we still filtered
to make even better. Had to do a pretty big crop
on this one to remove some subs , still see
alittle of them throughout. So enjoy.


The.Vow.2012.CAM.XviD-INFERNO

Format : AVI
Format/Info : Audio Video Interleave
File size : 1.42 GiB
Duration : 1h 39mn
Overall bit rate : 2 042 Kbps

Video
ID : 0
Format : MPEG-4 Visual
Format profile : Advanced
Format settings, BVOP : 2
Format settings, QPel : No
Format settings, GMC : No warppoints
Format settings, Matrix : Default (MPEG)
Muxing mode : Packed bitstream
Codec ID : XVID
Codec ID/Hint : XviD
Duration : 1h 39mn
Bit rate : 1 902 Kbps
Width : 720 pixels
Height : 304 pixels
Display aspect ratio : 2.35:1
Frame rate : 29.970 fps
Color space : YUV
Chroma subsampling : 4:2:0
Bit depth : 8 bits
Scan type : Progressive
Compression mode : Lossy
Bits/(Pixel*Frame) : 0.290
Stream size : 1.32 GiB (93%)
Writing library : XviD 64

Audio
ID : 1
Format : MPEG Audio
Format version : Version 1
Format profile : Layer 3
Codec ID : 55
Codec ID/Hint : MP3
Duration : 1h 39mn
Bit rate mode : Constant
Bit rate : 128 Kbps
Channel(s) : 2 channels
Sampling rate : 48.0 KHz
Compression mode : Lossy
Delay relative to video : 22ms
Stream size : 91.1 MiB (6%)
Alignment : Split accross interleaves
Interleave, duration : 33 ms (1.00 video frame)
Interleave, preload duration : 500 ms


Download The.Vow.CAM.2012.XviD-INFERNO-[MoviesP2P.com] torrent


Related Torrents

Added  Size  Health
Download Magnet link Browse Movies torrent The Vow 2012 CAM x264 AAC-DiNGiE in Movies - h.264/x264, by
Dingie
6y 1.0 GB 0 1
Download Magnet link Browse Movies torrent The.Vow.2012.Cam.XviD.Feel-Free in Movies - Divx/Xvid, by
pitic
6y 987.8 MB 0 1
Download Magnet link Browse Movies torrent The Vow CAM 2012 XviD-INFERNO in Movies - Divx/Xvid, by
Sahibgrew
6y 1.4 GB 0 1
Download Magnet link Browse Movies torrent The Vow 2012 CAM XviD-INFERNO in Movies - Divx/Xvid, by
Hackulus
6y 748.2 MB 0 1
Download Magnet link Browse Movies torrent The Vow 2012 CAM XviD-INFERNO in Movies - Divx/Xvid, by
Sahibgrew
6y 748.2 MB 0 1



Comments   (please login to add your comment!)


Home - Browse Torrents

Made with love by an Extratorrent Fan!